Rules FAQ Advertising

I confirm that i am at least 18 years old

Perfect Homemade Clips Collection 06 (Best Amateur Pack)


DownloadPerfect Homemade Clips Collection 06 (Best Amateur Pack).torrent
Description
Forbidden for under 18!
 



Натисни за голям размер




     General
Complete name     : E:\zamunda\novi\Perfect Homemade Clips Collection 06 (Best Amateur Pack)\perfect.homemade.clips.collection.06.mp4.flv.avi.mov\01 beautiful teen blowjob.avi
Format: AVI
Format/Info       : Audio Video Interleave
File size         : 18.5 MiB
Duration          : 2 min 0 s
Overall bit rate  : 1 292 kb/s
Writing application: Lavf52.105.0
IsTruncated       : Yes

Video
ID    : 0
Format: MPEG-4 Visual
Format profile    : Simple@L1
Format settings, BVOP: No
Format settings, QPel: No
Format settings, GMC: No warppoints
Format settings, Matrix      : Default (H.263)
Codec ID          : XVID
Codec ID/Hint     : XviD
Duration          : 2 min 0 s
Bit rate          : 1 152 kb/s
Width : 320 pixels
Height: 240 pixels
Display aspect ratio: 4:3
Frame rate        : 25.000 FPS
Color space       : YUV
Chroma subsampling: 4:2:0
Bit depth         : 8 bits
Scan type         : Progressive
Compression mode  : Lossy
Bits/(Pixel*Frame): 0.600
Stream size       : 16.5 MiB (89%)
Writing library   : Lavc52.117.0
Audio
ID    : 1
Format: MPEG Audio
Format version    : Version 1
Format profile    : Layer 3
Mode  : Joint stereo
Mode extension    : MS Stereo
Codec ID          : 55
Codec ID/Hint     : MP3
Duration          : 2 min 0 s
Bit rate mode     : Constant
Bit rate          : 128 kb/s
Channel(s)        : 2 channels
Sampling rate     : 44.1 kHz
Compression mode  : Lossy
Stream size       : 1.84 MiB (10%)
Alignment         : Aligned on interleaves
Interleave, duration: 26  ms (0.65 video frame)
Interleave, preload duration : 104  ms
Writing library   : LAME3.97
NFOView NFO (18.26 KB)
TypeXXX
GenreDeepthroat, Teen, Amateur
Last seederLast active 1:42:07
Size854.13 MB (895,619,319 bytes)
Rating
Rating: 4.5 / 5 (4.5 from possible 5 with 4 vote(s) total)        (Login to rate it)
Added2017-04-06 16:58:17
Info:Hits:  4352 times
Num files10 files
File list
[Hide list]
DirectorySize
perfect.homemade.clips.collection.06.mp4.flv.avi.mov/thumbs/05 Rich Teen Girl Masurbates.mp4_thumbs_[2017.03.13_17.11.49].jpg1.12 MB
perfect.homemade.clips.collection.06.mp4.flv.avi.mov/thumbs/01 beautiful teen blowjob.avi_thumbs_[2017.03.13_17.10.45].jpg799.17 KB
perfect.homemade.clips.collection.06.mp4.flv.avi.mov/thumbs/03 Ponytail cutie.avi_thumbs_[2017.03.13_17.11.25].jpg696.40 KB
perfect.homemade.clips.collection.06.mp4.flv.avi.mov/thumbs/04 Beautiful Couple.mp4_thumbs_[2017.03.13_17.11.35].jpg671.05 KB
perfect.homemade.clips.collection.06.mp4.flv.avi.mov/thumbs/02 Teen Deepthroat with no Gag Reflex.mp4_thumbs_[2017.03.13_17.11.10].jpg643.13 KB
perfect.homemade.clips.collection.06.mp4.flv.avi.mov/04 Beautiful Couple.mp4647.88 MB
perfect.homemade.clips.collection.06.mp4.flv.avi.mov/03 Ponytail cutie.avi86.87 MB
perfect.homemade.clips.collection.06.mp4.flv.avi.mov/02 Teen Deepthroat with no Gag Reflex.mp463.99 MB
perfect.homemade.clips.collection.06.mp4.flv.avi.mov/05 Rich Teen Girl Masurbates.mp433.01 MB
perfect.homemade.clips.collection.06.mp4.flv.avi.mov/01 beautiful teen blowjob.avi18.51 MB
Peers
8 seeder(s), 0 leecher(s) = 8 peer(s)

No comments yet

Add comment