Rules FAQ Advertising

I confirm that i am at least 18 years old


all 0 1 2 3 4 5 6 7 8 9 A B C D E F G H I J K L M N O P Q R S T U V W X Y Z

  All Girls
  Amateur
  Anal
  Anime/Cartoon
  Asian
  BBW
  BDSM
  Bi-Sexual
  Big Tits
  Black
  Classic
  Clips
  Creampie
  Cumshot
  DP
  Deepthroat
  Ejaculation
  Feature
  Fetish
  Fisting
  Foreign
  Gang Bang
  Gay
  Gonzo
  Hardcore
  Interracial
  Latina/Latino
  Lesbian
  MILF
  Masturbation
  Mature(Older)
  Miscellaneous
  Oral
  Orgy(Group)
  Pics
  Piss
  Pregnant
  Russian
  Scat
  Shemale/Trans
  Softcore
  Straight
  Strapon
  Teen
  Toys
  Virtual/Games
  Voyeur
   


Search for


<< Prev      Next >>
1 - 10 | 11 - 20 | 21 - 30 | ... | 1831 - 1840 | 1841 - 1850 | 1851 - 1852

Catalogue



 ACTIVE
PublicAgent - Elle Rose View NFO
Category: Genre: Uploaded: Posts: Size: Rating: Seed/Leech: Downloaded:
XXX Clips
Amateur
Teen
2017-04-22 08:35:31
0
366.55 MB
-----
471 / 3
1314 times

Forbidden for under 18!
 
     




 ACTIVE
PublicPickUps - Jessica Cage View NFO
Category: Genre: Uploaded: Posts: Size: Rating: Seed/Leech: Downloaded:
XXX Clips
Amateur
Big Tits
2017-04-18 09:28:54
0
309.11 MB
-----
222 / 0
1042 times

Forbidden for under 18!
 
     




 ACTIVE
CzechStreets - Czech Streets 102 View NFO
Category: Genre: Uploaded: Posts: Size: Rating: Seed/Leech: Downloaded:
XXX Clips
Amateur
Hardcore
2017-04-18 09:14:52
0
329.28 MB
Rating: 5.0 / 5
487 / 0
2124 times

Forbidden for under 18!
 
     




 ACTIVE
CzechHarem - Czech Harem 9View NFO
Category: Genre: Uploaded: Posts: Size: Rating: Seed/Leech: Downloaded:
XXX/HD Clips
Amateur
Orgy(Group)
2017-04-12 08:46:24
0
307.69 MB
Rating: 5.0 / 5
181 / 1
1392 times

Forbidden for under 18!
 
       




 ACTIVE
GIRLS DO PORN - 18 Years Old - E242 ** NEW 28 december 2013 ** HD 720View NFO
Category: Genre: Uploaded: Posts: Size: Rating: Seed/Leech: Downloaded:
XXX Amateur
Teen
Classic
2017-04-10 11:08:10
0
1.76 GB
-----
141 / 0
1055 times

Forbidden for under 18!
 
     




 ACTIVE
Perfect Homemade Clips Collection 06 (Best Amateur Pack)View NFO
Category: Genre: Uploaded: Posts: Size: Rating: Seed/Leech: Downloaded:
XXX Deepthroat
Teen
Amateur
2017-04-06 16:58:17
0
854.13 MB
Rating: 4.5 / 5
105 / 3
1476 times

Forbidden for under 18!
 
     General
Complete name                            : E:\zamunda\novi\Perfect Homemade Clips Collection 06 (Best Amateur Pack)\perfect.homemade.clips.collection.06.mp4.flv.avi.mov\01 beautiful teen blowjob.avi
Format                                   : AVI
Format/Info                              : Audio Video Interleave
File size                                : 18.5 MiB
Duration                                 : 2 min 0 s
Overall bit rate                         : 1 292 kb/s
Writing application                      : Lavf52.105.0
IsTruncated                              : Yes

Video
ID                                       : 0
Format                                   : MPEG-4 Visual
Format profile                           : Simple@L1
Format settings, BVOP                    : No
Format settings, QPel                    : No
Format settings, GMC                     : No warppoints
Format settings, Matrix                  : Default (H.263)
Codec ID                                 : XVID
Codec ID/Hint                            : XviD
Duration                                 : 2 min 0 s
Bit rate                                 : 1 152 kb/s
Width                                    : 320 pixels
Height                                   : 240 pixels
Display aspect ratio                     : 4:3
Frame rate                               : 25.000 FPS
Color space                              : YUV
Chroma subsampling                       : 4:2:0
Bit depth                                : 8 bits
Scan type                                : Progressive
Compression mode                         : Lossy
Bits/(Pixel*Frame)                       : 0.600
Stream size                              : 16.5 MiB (89%)
Writing library                          : Lavc52.117.0
Audio
ID                                       : 1
Format                                   : MPEG Audio
Format version                           : Version 1
Format profile                           : Layer 3
Mode                                     : Joint stereo
Mode extension                           : MS Stereo
Codec ID                                 : 55
Codec ID/Hint                            : MP3
Duration                                 : 2 min 0 s
Bit rate mode                            : Constant
Bit rate                                 : 128 kb/s
Channel(s)                               : 2 channels
Sampling rate                            : 44.1 kHz
Compression mode                         : Lossy
Stream size                              : 1.84 MiB (10%)
Alignment                                : Aligned on interleaves
Interleave, duration                     : 26  ms (0.65 video frame)
Interleave, preload duration             : 104  ms
Writing library                          : LAME3.97




 ACTIVE
ShopLyfter - Charity Crawford & Zoey Laine View NFO
Category: Genre: Uploaded: Posts: Size: Rating: Seed/Leech: Downloaded:
XXX Clips
Teen
Amateur
2017-04-03 09:09:19
0
399.21 MB
Rating: 5.0 / 5
395 / 0
3479 times

Forbidden for under 18!
 
     




 ACTIVE
PublicAgent - Clea Gaultier View NFO
Category: Genre: Uploaded: Posts: Size: Rating: Seed/Leech: Downloaded:
XXX Clips
Amateur
Hardcore
2017-04-03 08:26:01
0
357.50 MB
-----
128 / 0
1532 times

Forbidden for under 18!
 
       




 ACTIVE
PublicAgent - Christina Shine View NFO
Category: Genre: Uploaded: Posts: Size: Rating: Seed/Leech: Downloaded:
XXX/HD Clips
Amateur
Big Tits
2017-03-26 09:55:27
0
612.38 MB
-----
151 / 0
1563 times

Forbidden for under 18!
 
     




 ACTIVE
PublicPickUps - Angelina Wild View NFO
Category: Genre: Uploaded: Posts: Size: Rating: Seed/Leech: Downloaded:
XXX Clips
Amateur
2017-03-26 09:44:26
2
324.43 MB
-----
110 / 0
1195 times

Forbidden for under 18!
 
     


1 - 10 | 11 - 20 | 21 - 30 | ... | 1831 - 1840 | 1841 - 1850 | 1851 - 1852
<< Prev      Next >>