Rules FAQ Advertising

I confirm that i am at least 18 years old


all 0 1 2 3 4 5 6 7 8 9 A B C D E F G H I J K L M N O P Q R S T U V W X Y Z

  All Girls
  Amateur
  Anal
  Anime/Cartoon
  Asian
  BBW
  BDSM
  Bi-Sexual
  Big Tits
  Black
  Classic
  Clips
  Creampie
  Cumshot
  DP
  Deepthroat
  Ejaculation
  Feature
  Fetish
  Fisting
  Foreign
  Gang Bang
  Gay
  Gonzo
  Hardcore
  Interracial
  Latina/Latino
  Lesbian
  MILF
  Masturbation
  Mature(Older)
  Miscellaneous
  Oral
  Orgy(Group)
  Pics
  Piss
  Pregnant
  Russian
  Scat
  Shemale/Trans
  Softcore
  Straight
  Strapon
  Teen
  Toys
  Virtual/Games
  Voyeur
   


Search for


<< Prev      Next >>
1 - 10 | 11 - 20 | 21 - 30 | ... | 2731 - 2740 | 2741 - 2750 | 2751 - 2757

Catalogue



 ACTIVE
PornstarsLikeItBig - Allie Haze View NFO
Category: Genre: Uploaded: Posts: Size: Rating: Seed/Leech: Downloaded:
XXX Clips
Anal
2017-04-25 08:57:25
0
367.95 MB
Rating: 4.3 / 5
287 / 4
432 times

Forbidden for under 18!
 
     




 ACTIVE
PublicAgent - Elle Rose View NFO
Category: Genre: Uploaded: Posts: Size: Rating: Seed/Leech: Downloaded:
XXX Clips
Amateur
Teen
2017-04-22 08:35:31
0
366.55 MB
-----
471 / 3
1314 times

Forbidden for under 18!
 
     




 ACTIVE
Pornstar Therapy (Brazzers)View NFO
Category: Genre: Uploaded: Posts: Size: Rating: Seed/Leech: Downloaded:
XXX Big Tits
Hardcore
Cumshot
2017-04-22 08:14:20
0
1.94 GB
-----
171 / 3
425 times

Forbidden for under 18!
                       
                 




 ACTIVE
Pure18 - Sierra Nicole View NFO
Category: Genre: Uploaded: Posts: Size: Rating: Seed/Leech: Downloaded:
XXX Clips
Teen
2017-04-19 09:30:18
0
553.62 MB
Rating: 5.0 / 5
77 / 0
424 times

Forbidden for under 18!
 
     




 ACTIVE
PublicPickUps - Jessica Cage View NFO
Category: Genre: Uploaded: Posts: Size: Rating: Seed/Leech: Downloaded:
XXX Clips
Amateur
Big Tits
2017-04-18 09:28:54
0
309.11 MB
-----
222 / 0
1042 times

Forbidden for under 18!
 
     




 ACTIVE
Pure18 - Jennifer Jacobs View NFO
Category: Genre: Uploaded: Posts: Size: Rating: Seed/Leech: Downloaded:
XXX Clips
Teen
2017-04-13 09:11:18
0
279.76 MB
Rating: 5.0 / 5
208 / 2
1501 times

Forbidden for under 18!
 
     




 ACTIVE
PornstarsLikeItBig - Katie MorganView NFO
Category: Genre: Uploaded: Posts: Size: Rating: Seed/Leech: Downloaded:
XXX Clips
Big Tits
2017-04-12 09:05:45
0
486.09 MB
Rating: 2.6 / 5
90 / 2
731 times

Forbidden for under 18!
 
     




 ACTIVE
PornFidelity - Stella Cox - The Public EyeView NFO
Category: Genre: Uploaded: Posts: Size: Rating: Seed/Leech: Downloaded:
XXX Hardcore
Big Tits
Clips
2017-04-11 19:31:33
0
505.46 MB
-----
81 / 0
513 times

Forbidden for under 18!
                       
             




 ACTIVE
Pomadenhengst (1973) [XviD]View NFO
Category: Genre: Uploaded: Posts: Size: Rating: Seed/Leech: Downloaded:
XXX Classic
Mature(Older)
Teen
2017-04-08 00:15:30
1
200.68 MB
Rating: 3.8 / 5
54 / 0
504 times

Forbidden for under 18!

   

Collection of classic incest videos ! [8]

Description !




 ACTIVE
Perfect Homemade Clips Collection 06 (Best Amateur Pack)View NFO
Category: Genre: Uploaded: Posts: Size: Rating: Seed/Leech: Downloaded:
XXX Deepthroat
Teen
Amateur
2017-04-06 16:58:17
0
854.13 MB
Rating: 4.5 / 5
105 / 3
1476 times

Forbidden for under 18!
 
     General
Complete name                            : E:\zamunda\novi\Perfect Homemade Clips Collection 06 (Best Amateur Pack)\perfect.homemade.clips.collection.06.mp4.flv.avi.mov\01 beautiful teen blowjob.avi
Format                                   : AVI
Format/Info                              : Audio Video Interleave
File size                                : 18.5 MiB
Duration                                 : 2 min 0 s
Overall bit rate                         : 1 292 kb/s
Writing application                      : Lavf52.105.0
IsTruncated                              : Yes

Video
ID                                       : 0
Format                                   : MPEG-4 Visual
Format profile                           : Simple@L1
Format settings, BVOP                    : No
Format settings, QPel                    : No
Format settings, GMC                     : No warppoints
Format settings, Matrix                  : Default (H.263)
Codec ID                                 : XVID
Codec ID/Hint                            : XviD
Duration                                 : 2 min 0 s
Bit rate                                 : 1 152 kb/s
Width                                    : 320 pixels
Height                                   : 240 pixels
Display aspect ratio                     : 4:3
Frame rate                               : 25.000 FPS
Color space                              : YUV
Chroma subsampling                       : 4:2:0
Bit depth                                : 8 bits
Scan type                                : Progressive
Compression mode                         : Lossy
Bits/(Pixel*Frame)                       : 0.600
Stream size                              : 16.5 MiB (89%)
Writing library                          : Lavc52.117.0
Audio
ID                                       : 1
Format                                   : MPEG Audio
Format version                           : Version 1
Format profile                           : Layer 3
Mode                                     : Joint stereo
Mode extension                           : MS Stereo
Codec ID                                 : 55
Codec ID/Hint                            : MP3
Duration                                 : 2 min 0 s
Bit rate mode                            : Constant
Bit rate                                 : 128 kb/s
Channel(s)                               : 2 channels
Sampling rate                            : 44.1 kHz
Compression mode                         : Lossy
Stream size                              : 1.84 MiB (10%)
Alignment                                : Aligned on interleaves
Interleave, duration                     : 26  ms (0.65 video frame)
Interleave, preload duration             : 104  ms
Writing library                          : LAME3.97


1 - 10 | 11 - 20 | 21 - 30 | ... | 2731 - 2740 | 2741 - 2750 | 2751 - 2757
<< Prev      Next >>