Rules FAQ Advertising

I confirm that i am at least 18 years old


all 0 1 2 3 4 5 6 7 8 9 A B C D E F G H I J K L M N O P Q R S T U V W X Y Z

  All Girls
  Amateur
  Anal
  Anime/Cartoon
  Asian
  BBW
  BDSM
  Bi-Sexual
  Big Tits
  Black
  Classic
  Clips
  Creampie
  Cumshot
  DP
  Deepthroat
  Ejaculation
  Feature
  Fetish
  Fisting
  Foreign
  Gang Bang
  Gay
  Gonzo
  Hardcore
  Interracial
  Latina/Latino
  Lesbian
  MILF
  Masturbation
  Mature(Older)
  Miscellaneous
  Oral
  Orgy(Group)
  Pics
  Piss
  Pregnant
  Russian
  Scat
  Shemale/Trans
  Softcore
  Straight
  Strapon
  Teen
  Toys
  Virtual/Games
  Voyeur
   


Search for


<< Prev      Next >>
1 - 10 | 11 - 15

Catalogue



 ACTIVE
Throated - Riley NixonView NFO
Category: Genre: Uploaded: Posts: Size: Rating: Seed/Leech: Downloaded:
XXX Deepthroat
Interracial
Oral
2017-09-08 17:09:00
0
136.57 MB
-----
8 / 0
54 times

Forbidden for under 18!





 ACTIVE
BLACKED - Adria RaeView NFO
Category: Genre: Uploaded: Posts: Size: Rating: Seed/Leech: Downloaded:
XXX/HD Black
Deepthroat
Cumshot
2017-04-10 12:19:52
0
2.99 GB
Rating: 3.0 / 5
20 / 0
518 times

Forbidden for under 18!
 
   




 ACTIVE
Perfect Homemade Clips Collection 06 (Best Amateur Pack)View NFO
Category: Genre: Uploaded: Posts: Size: Rating: Seed/Leech: Downloaded:
XXX Deepthroat
Teen
Amateur
2017-04-06 16:58:17
0
854.13 MB
Rating: 4.5 / 5
20 / 0
1914 times

Forbidden for under 18!
 
     General
Complete name                            : E:\zamunda\novi\Perfect Homemade Clips Collection 06 (Best Amateur Pack)\perfect.homemade.clips.collection.06.mp4.flv.avi.mov\01 beautiful teen blowjob.avi
Format                                   : AVI
Format/Info                              : Audio Video Interleave
File size                                : 18.5 MiB
Duration                                 : 2 min 0 s
Overall bit rate                         : 1 292 kb/s
Writing application                      : Lavf52.105.0
IsTruncated                              : Yes

Video
ID                                       : 0
Format                                   : MPEG-4 Visual
Format profile                           : Simple@L1
Format settings, BVOP                    : No
Format settings, QPel                    : No
Format settings, GMC                     : No warppoints
Format settings, Matrix                  : Default (H.263)
Codec ID                                 : XVID
Codec ID/Hint                            : XviD
Duration                                 : 2 min 0 s
Bit rate                                 : 1 152 kb/s
Width                                    : 320 pixels
Height                                   : 240 pixels
Display aspect ratio                     : 4:3
Frame rate                               : 25.000 FPS
Color space                              : YUV
Chroma subsampling                       : 4:2:0
Bit depth                                : 8 bits
Scan type                                : Progressive
Compression mode                         : Lossy
Bits/(Pixel*Frame)                       : 0.600
Stream size                              : 16.5 MiB (89%)
Writing library                          : Lavc52.117.0
Audio
ID                                       : 1
Format                                   : MPEG Audio
Format version                           : Version 1
Format profile                           : Layer 3
Mode                                     : Joint stereo
Mode extension                           : MS Stereo
Codec ID                                 : 55
Codec ID/Hint                            : MP3
Duration                                 : 2 min 0 s
Bit rate mode                            : Constant
Bit rate                                 : 128 kb/s
Channel(s)                               : 2 channels
Sampling rate                            : 44.1 kHz
Compression mode                         : Lossy
Stream size                              : 1.84 MiB (10%)
Alignment                                : Aligned on interleaves
Interleave, duration                     : 26  ms (0.65 video frame)
Interleave, preload duration             : 104  ms
Writing library                          : LAME3.97




 ACTIVE
HotBush - Maya Kendrick Blazin BushView NFO
Category: Genre: Uploaded: Posts: Size: Rating: Seed/Leech: Downloaded:
XXX Amateur
Deepthroat
Cumshot
2017-02-19 11:49:59
0
298.93 MB
Rating: 5.0 / 5
8 / 0
721 times

Forbidden for under 18!
 
   




 ACTIVE
Russian Beauty - Elena KoshkaView NFO
Category: Genre: Uploaded: Posts: Size: Rating: Seed/Leech: Downloaded:
XXX/HD Teen
Russian
Deepthroat
2016-11-26 12:11:19
3
3.89 GB
Rating: 5.0 / 5
24 / 0
1565 times

Forbidden for under 18!
   
                 




 ACTIVE
TwistysHard - Blair Williams (From The Sex Factor)View NFO
Category: Genre: Uploaded: Posts: Size: Rating: Seed/Leech: Downloaded:
XXX Clips
Big Tits
Deepthroat
2016-07-05 14:56:49
2
752.61 MB
Rating: 5.0 / 5
4 / 0
1430 times

Forbidden for under 18!
                         
           




 ACTIVE
MontysPOV - Khaya Peake (From The Sex Factor)View NFO
Category: Genre: Uploaded: Posts: Size: Rating: Seed/Leech: Downloaded:
XXX/HD Clips
Oral
Deepthroat
2016-07-01 11:26:36
6
816.50 MB
Rating: 4.2 / 5
8 / 0
1665 times

Forbidden for under 18!
                         
           




 ACTIVE
Meet Mandingo 3View NFO
Category: Genre: Uploaded: Posts: Size: Rating: Seed/Leech: Downloaded:
XXX Anal
Interracial
Deepthroat
2016-05-18 17:00:30
0
1.19 GB
-----
1 / 0
488 times

Forbidden for under 18!
                       
                 




 ACTIVE
TeenFidelity - Gina ValentinaView NFO
Category: Genre: Uploaded: Posts: Size: Rating: Seed/Leech: Downloaded:
XXX Deepthroat
Teen
Classic
2016-05-16 09:50:24
0
778.77 MB
Rating: 5.0 / 5
12 / 0
969 times

Forbidden for under 18!
                       
                 




 ACTIVE
LegalPorno - Luna Rival & JessiView NFO
Category: Genre: Uploaded: Posts: Size: Rating: Seed/Leech: Downloaded:
XXX Anal
Deepthroat
Teen
2016-05-15 13:07:38
0
990.53 MB
Rating: 5.0 / 5
4 / 0
910 times

Forbidden for under 18!
                       
                 


1 - 10 | 11 - 15
<< Prev      Next >>